logo

Top news

Cette tombola, sans nom propre, est représentée par un tirage au sort de minimum 10 «codes Loto» qui sont portés au nombre de 50 lors dévénements «Super Loto» et 100 lors des «Grand Loto fdj gain loto de Noël».Chaque code Loto est unique et..
Read more
Hale Centre Theatre has been dedicated to providing our patrons with the finest theatrical experience.Source: Eventective, between the massive succulent and Mojave cacti collection, the botanical gardens, and the butterfly habitat, there are plenty of places to pose in this oft-unknown oasis in the..
Read more
With this trail system one can enjoy a nice weekend / weekday cruise with your family and friends without the worry of impassible obstacles.Views: 149, february 8th, 2019, 09:14 AM, replies: 3 Views: 306 February 7th, 2019, 11:27 AM Replies: 0 Views: 162 January..
Read more

Gagnant win for life 5000


DR6 -0.10 dB -6.90 dB 2:31?-Die on Your Feet.
Regarding the annuity, it is an amount of 1,000 net of taxes, which will be paid on a un francais peut il jouer au lotto belge weekly basis.
In the event of his death, the legal heirs will be entitled to the annuity income only until the date that would have been the winners 91st birthday, had he survived publicité loto québec raccroche (Canadas Income Tax Act).Il y a déjà 10 gagnants Win for Life en 2019!Et si vous naimez pas les Currywurst, vous trouverez bien une autre excuse pour y aller.DR6 -0.10 dB -7.16 dB 2:51?-Get a Life.DR6 -0.10 dB -7.23 dB 1:11?-Thank God.DR9 -0.16 dB -12.18 dB 4:20?-No White Flags.
In the event the winner dies within the first 20 years after the prize claim date, the annuity is transferrable to the winners legal heirs, who will receive the same annuity, paid at the same frequency for the balance of the 20 years that have not elapsed.
DR6 -0.10 dB -7.11 dB 3:18?-Cult Leader.A designated insurance company will be responsible for administering and paying out the annuity.DR6 -0.10 dB -7.50 dB 3:13?-David Fucking Bowie.However, instead of the annuity, the winner may choose a non-taxable lump sum of 1,000,000.David Fucking Bowie.




Sitemap